Soorma 2018 Full Movie Free Download In 720p HDRip Quality Encoded In x264 With English Subtitles.

Soorma 2018 720p HD Movie Free Download Direct Links

Details Of Full Length Free Videos

Title: Soorma 2018 [720p HD]
Genres: Biography | Sport
Country: India
Language: Hindi
Release Date: 13 July 2018
Quality: 720p x264 | 720p HDRip x264
Format: MKV
Size: 668-MB | 1-GB

IMDb

Storyline

Soorma 720p HD Movie Free Download Direct Links This is an inspiring true story of the triumph of the human spirit, about a player who faced a near death experience when he was at his peak but emerged victorious by his sheer determination, hard work and unrelenting passion for the sport. Free Download Soorma 2018 HD Movie 720p Sandeep Singh, a penalty corner specialist in the Indian Hockey team from Shahbad, Haryana made headlines when he was hit in the spine by an accidental gunshot while travelling on a train to join the national team that was to fly to Germany for the World Cup in 2006. The injury left him paralyzed, with the medical community giving him a slim chance of ever walking again. However, not only did Sandeep recover from it but he also made a comeback and re-established himself as the best drag-flicker, going on to captain the Indian national hockey team in January 2009.

Soorma 720p HDRip x264 - 1 GB Video File Details + Screenshot

Soorma 720p HDRip x264 - 1 GB Video File Details + Screenshot

Soorma 2018 720p HDRip Full Movie Free Download 1 GB

Format : AVC
Format/Info : Advanced Video Codec
Format profile : [email protected]
Format settings : CABAC / 4 Ref Frames
Format settings, CABAC : Yes
Format settings, RefFrames : 4 frames
Codec ID : V_MPEG4/ISO/AVC
Duration : 2 h 10 min
Nominal bit rate : 1 000 kb/s
Width : 1 280 pixels
Height : 544 pixels
Display aspect ratio : 2.35:1
Frame rate mode : Constant
Frame rate : 23.976 (24000/1001) FPS
Color space : YUV
Chroma subsampling : 4:2:0
Bit depth : 8 bits
Scan type : Progressive
Bits/(Pixel*Frame) : 0.060
Writing library : x264 core 142 r2479 dd79a61
Encoding settings : cabac=1 / ref=3 / deblock=1:0:0 / analyse=0x3:0x113 / me=hex / subme=7 / psy=1 / psy_rd=1.00:0.00 / mixed_ref=1 / me_range=16 / chroma_me=1 / trellis=1 / 8x8dct=1 / cqm=0 / deadzone=21,11 / fast_pskip=1 / chroma_qp_offset=-2 / threads=12 / lookahead_threads=2 / sliced_threads=0 / nr=0 / decimate=1 / interlaced=0 / bluray_compat=0 / constrained_intra=0 / bframes=3 / b_pyramid=2 / b_adapt=1 / b_bias=0 / direct=1 / weightb=1 / open_gop=0 / weightp=2 / keyint=240 / keyint_min=24 / scenecut=40 / intra_refresh=0 / rc_lookahead=40 / rc=2pass / mbtree=1 / bitrate=1000 / ratetol=1.0 / qcomp=0.60 / qpmin=0 / qpmax=69 / qpstep=4 / cplxblur=20.0 / qblur=0.5 / vbv_maxrate=62500 / vbv_bufsize=78125 / nal_hrd=none / filler=0 / ip_ratio=1.40 / aq=1:1.00

Default : Yes
Forced : No
Color range : Limited
Color primaries : BT.709
Transfer characteristics : BT.709
Matrix coefficients : BT.709
Statistics Tags Issue : mkvmerge v7.7.0 (‘Six Voices’) 64bit built on Feb 28 2015 23:39:33 2018-10-13 15:01:33 / mkvmerge v7.7.0 (‘Six Voices’) 64bit built on Feb 28 2015 23:39:33 2018-10-13 15:01:33 / UTC
FromStats_BitRate : 999597
FromStats_Duration : 02:10:47.048000000
FromStats_FrameCount : 188141
FromStats_StreamSize : 980485904

Audio
ID : 2
Format : AAC
Format/Info : Advanced Audio Codec
Format profile : HE-AAC / LC
Format settings : NBC
Codec ID : A_AAC-
Duration : 2 h 10 min
Channel(s) : 2 channels
Channel positions : Front: L R
Sampling rate : 48.0 kHz / 24.0 kHz
Frame rate : 23.438 FPS (1024 SPF)
Compression mode : Lossy
Delay relative to video : -105 ms
Language : Hindi
Default : Yes
Forced : No
Statistics Tags Issue : mkvmerge v7.7.0 (‘Six Voices’) 64bit built on Feb 28 2015 23:39:33 2018-10-13 15:01:33 / mkvmerge v7.7.0 (‘Six Voices’) 64bit built on Feb 28 2015 23:39:33 2018-10-13 15:01:33 / UTC
FromStats_BitRate : 96000
FromStats_Duration : 02:10:47.040000000
FromStats_FrameCount : 183915
FromStats_StreamSize : 94164481

Text
ID : 3
Format : UTF-8
Codec ID : S_TEXT/UTF8
Codec ID/Info : UTF-8 Plain Text
Default : Yes
Forced : No
Statistics Tags Issue : mkvmerge v7.7.0 (‘Six Voices’) 64bit built on Feb 28 2015 23:39:33 2018-10-13 15:01:33 / mkvmerge v7.7.0 (‘Six Voices’) 64bit built on Feb 28 2015 23:39:33 2018-10-13 15:01:33 / UTC
FromStats_BitRate : 62
FromStats_Duration : 02:10:08.042000000
FromStats_FrameCount : 1806
FromStats_StreamSize : 60586

Soorma 720p x264 - 668 MB Video File Details + Screenshot

Soorma 720p x264 - 668 MB Video File Details + Screenshot

Soorma 720p x264 Full Movie Free Download 700 MB

Soorma 720p x264 Full Movie Free Download 700 MB

Soorma 720p x264 Full Movie Free Download 700 MB

Format : Matroska
Format version : Version 4 / Version 2
File size : 667 MiB
Duration : 2 h 10 min
Overall bit rate : 713 kb/s
Movie name : Soorma 2018 GOPISAHI

Video
Format : AVC
Format/Info : Advanced Video Codec
Duration : 2 h 10 min
Bit rate : 599 kb/s
Width : 1 280 pixels
Height : 544 pixels
Display aspect ratio : 2.35:1
Frame rate mode : Constant
Frame rate : 24.000 FPS
Color space : YUV
Chroma subsampling : 4:2:0
Bit depth : 8 bits
Scan type : Progressive
Bits/(Pixel*Frame) : 0.036
Stream size : 560 MiB (84%)
Writing library : x264 core 155 r2901 7d0ff22

Audio
Format : AAC
Duration : 2 h 10 min
Bit rate : 112 kb/s
Channel(s) : 2 channels
Channel positions : Front: L R
Sampling rate : 48.0 kHz
Frame rate : 46.875 FPS (1024 SPF)
Compression mode : Lossy
Delay relative to video : -21 ms
Stream size : 105 MiB (16%)
Language : Hindi

Text
Language : English

Watch The Full HD 720p, 1080p Movie Trailers

Watch Soorma 2018 Official Movie Trailer

Direct Download Links Of Soorma 2018 Full Movie In 720p HD Given Below

Free Download Direct Links HD

Direct Links For Premium Users

If you are the member of this site then enter your login details and Enjoy Direct Links

Leave a Reply

Your email address will not be published. Required fields are marked *

Check Also

Bucket List (2018) Marathi 720p HDRip x264 AAC – 1.1 GB

Bucket List 2018 Full Marathi Movie Free Download In 720p HDRip QUality Encoded In x264 MK…